loading...
Custom Search
Đánh giá chủ đề:
  • 2 Phiếu - 1.5 Trung bình
  • 1
  • 2
  • 3
  • 4
  • 5
X-Men First Class 2011 mHD BluRay x264-EPiK
#1
X-Men First Class 2011 mHD BluRay x264-EPiK

Dị nhân: thế hệ đầu tiên


[Hình: 60FA_4E55B73E.jpg]



Mã:
Tên phim: X-Men: First Class (2011)
Đạo diễn: Matthew Vaughn
Kịch bản: Ashley Miller (screenplay), Zack Stentz (screenplay)
Diễn viên chính: James McAvoy, Michael Fassbender and Jennifer Lawrence
Thể loại: Action | Adventure | Drama
Đánh giá: 8.0 (84,927 Votes)
Thời lượng: 132 mins
Ngôn ngữ: English | German | French | Spanish | Russian
Quốc gia: USA

Mã:
General
Unique ID : 223595862935365321933244879144685776419 (0xA836FF2D6BFE4DBAB7A08D597AF9AE23)
Complete name : X-Men.First.Class.2011.mHD.BluRay.x264-EPiK
Format : Matroska
Format version : Version 2
File size : 2.47 GiB
Duration : 2h 11mn
Overall bit rate : 2 682 Kbps
Movie name : EPiK ~ all.hdvnbits.org
Encoded date : UTC 2011-08-26 04:31:13
Writing application : mkvmerge v4.9.1 ('Ich will') built on Jul 11 2011 23:53:15
Writing library : libebml v1.2.1 + libmatroska v1.1.1

Video
ID : 1
Format : AVC
Format/Info : Advanced Video Codec
Format profile : High@L4.1
Format settings, CABAC : Yes
Format settings, ReFrames : 12 frames
Codec ID : V_MPEG4/ISO/AVC
Duration : 2h 11mn
Bit rate : 2 180 Kbps
Width : 1 280 pixels
Height : 544 pixels
Display aspect ratio : 2.35:1
Frame rate : 23.976 fps
Color space : YUV
Chroma subsampling : 4:2:0
Bit depth : 8 bits
Scan type : Progressive
Bits/(Pixel*Frame) : 0.131
Stream size : 2.01 GiB (81%)
Title : EPiK ~ all.hdvnbits.org
Writing library : x264 core 116 r2057 0ba8a9c
Encoding settings : cabac=1 / ref=12 / deblock=1:-3:-3 / analyse=0x3:0x113 / me=umh / subme=10 / psy=1 / psy_rd=0.95:0.00 / mixed_ref=1 / me_range=16 / chroma_me=1 / trellis=2 / 8x8dct=1 / cqm=0 / deadzone=21,11 / fast_pskip=0 / chroma_qp_offset=-2 / threads=6 / sliced_threads=0 / nr=0 / decimate=0 / interlaced=0 / bluray_compat=0 / constrained_intra=0 / bframes=8 / b_pyramid=2 / b_adapt=2 / b_bias=0 / direct=3 / weightb=1 / open_gop=0 / weightp=2 / keyint=250 / keyint_min=23 / scenecut=40 / intra_refresh=0 / rc_lookahead=40 / rc=crf / mbtree=1 / crf=21.4 / qcomp=0.60 / qpmin=0 / qpmax=69 / qpstep=4 / ip_ratio=1.40 / aq=1:0.80 / zones=49279,51969,q=20/120438,121732,q=20/153541,161571,q=20
Language : English
Matrix coefficients : BT.709-5, BT.1361, IEC 61966-2-4 709, SMPTE RP177

Audio
ID : 2
Format : AC-3
Format/Info : Audio Coding 3
Mode extension : CM (complete main)
Codec ID : A_AC3
Duration : 2h 11mn
Bit rate mode : Constant
Bit rate : 448 Kbps
Channel(s) : 6 channels
Channel positions : Front: L C R, Side: L R, LFE
Sampling rate : 48.0 KHz
Bit depth : 16 bits
Compression mode : Lossy
Stream size : 422 MiB (17%)
Title : EPiK ~ all.hdvnbits.org
Language : English



[Hình: CBFE_4E579110.jpg]



[YOUTUBE]UrbHykKUfTM[/YOUTUBE]

Download:
Mã:
http://up.4share.vn/d/5e6f676c6a6d6d6f
Trả lời
Được cảm ơn bởi:


Chủ đề có thể liên quan...
Chủ đề: Tác giả Trả lời: Xem: Bài mới nhất
  Legion - Ác Thần (2010) Bluray 720p DTS 2Audio x264 - EbP Manhnguyen 0 1,476 26-09-2012, 22:28
Bài mới nhất: Manhnguyen
  MF-Haywire - Người đẹp Báo Thù 2011- BRRIP SubViet tuhu1234 0 1,629 02-06-2012, 15:46
Bài mới nhất: tuhu1234
  [MF] Chiến Binh Phố Petaling -2011-DVDrip-Vsub -võ Thuật - Cực Hài Hước pro12 0 1,534 02-06-2012, 15:46
Bài mới nhất: pro12
  MF-Nữ Sát Thủ Colombiana (2011) Bản đẹp [600MB](Vsub) pro12 0 1,339 02-06-2012, 15:46
Bài mới nhất: pro12
  [MF]Undisputed -Quyết Đấu .2002.720p.BluRay.x264-APAX gacon12 0 1,205 02-06-2012, 15:46
Bài mới nhất: gacon12
  Battle Force 2011 -- [V-Sub] -- [720p BRRip] pro12 0 1,092 02-06-2012, 15:45
Bài mới nhất: pro12
  MF-Conan The Barbarian – Chiến Binh Conan Xứ Cimmerian (2011)Subviet gacon12 0 1,144 02-06-2012, 15:45
Bài mới nhất: gacon12
  [HOT] Bangkok Kungfu 2011(Mario Maurer) Bản SD nét! tuhu1234 0 1,167 02-06-2012, 15:45
Bài mới nhất: tuhu1234
  Special Forces - Lực Lượng Đặc Biệt [720p BluRay] pro12 0 1,063 02-06-2012, 15:45
Bài mới nhất: pro12
  [HD]Sát Thủ Chuyên Nghiệp - (Jason Statham) 2011 gacon12 0 1,089 02-06-2012, 15:45
Bài mới nhất: gacon12