loading...
Custom Search
Đánh giá chủ đề:
  • 1 Phiếu - 1 Trung bình
  • 1
  • 2
  • 3
  • 4
  • 5
Download Xì Trum 2011 R5 DVDRip mediafire VietSub The Smurfs
#1
Download The Smurfs 2011 R5 DVDRip mediafire VietSub [MF] The Smurfs 2011 R5 DVDRip AC3-5 1 HQ Hive-CM8 Download Xì Trum 2011 R5 DVDRip mediafire VietSub The Smurfs

. Download Xì Trum 2011 R5 DVDRip mediafire VietSub The Smurfs

[Hình: smurfscover.jpg]

NFO:


http://www.imdb.com/title/tt0472181/

General
Complete name : The.Smurfs.2011.R5.DVDRip.Clear.AC3-5.1.HQ.Hive-CM8.avi
Format : AVI
Format/Info : Audio Video Interleave
File size : 1.55 GiB
Duration : 1h 38mn
Overall bit rate : 2 253 Kbps
Writing application : Nandub v1.0rc2
Writing library : Nandub build 1853/release

Video
ID : 0
Format : MPEG-4 Visual
Format profile : Advanced Simple@L5
Format settings, BVOP : 2
Format settings, QPel : Yes
Format settings, GMC : No warppoints
Format settings, Matrix : Default (H.263)
Muxing mode : Packed bitstream
Codec ID : XVID
Codec ID/Hint : XviD
Duration : 1h 38mn
Bit rate : 1 795 Kbps
Width : 720 pixels
Height : 400 pixels
Display aspect ratio : 16:9
Frame rate : 25.000 fps
Color space : YUV
Chroma subsampling : 4:2:0
Bit depth : 8 bits
Scan type : Progressive
Compression mode : Lossy
Bits/(Pixel*Frame) : 0.249
Stream size : 1.24 GiB (80%)
Writing library : XviD 1.2.1 (UTC 2008-12-04)

Audio
ID : 1
Format : AC-3
Format/Info : Audio Coding 3
Mode extension : CM (complete main)
Codec ID : 2000
Duration : 1h 38mn
Bit rate mode : Constant
Bit rate : 448 Kbps
Channel(s) : 6 channels
Channel positions : Front: L C R, Side: L R, LFE
Sampling rate : 48.0 KHz
Bit depth : 16 bits
Compression mode : Lossy
Stream size : 316 MiB (20%)
Alignment : Split accross interleaves
Interleave, duration : 40 ms (1.00 video frame)
Interleave, preload duration : 500 ms


SCREENS:

[Hình: smsmsm.png]
[Hình: smsmsmiqi.png]
[Hình: smsmsmvlv.png]

DOWNLOAD:


Phụ đề tiếng việt:


http://subscene.com/vietnamese/The-Smurf...82999.aspx
[Hình: mf.png]

http://www.mediafire.com/?844p4d9g6hcc4bi
http://www.mediafire.com/?tzmhnjmzmshdzo4
http://www.mediafire.com/?5k7u777v4l3bysl
http://www.mediafire.com/?2k68s6gesml3yqp
http://www.mediafire.com/?zbfxovc4w0876yb
http://www.mediafire.com/?it45ka44ff1xf4l
http://www.mediafire.com/?j8w0wthow6i1ad6
http://www.mediafire.com/?77nh3ox4m5cb7ga
http://www.mediafire.com/?3tfdobsoelajloa


Source: mamadownload.info
Trả lời
Được cảm ơn bởi:
#2
Link die hết rồi, cho link khác đi bạn. Thank
[Hình: ktviet12112013.png]
Trả lời
Được cảm ơn bởi:


Chủ đề có thể liên quan...
Chủ đề: Tác giả Trả lời: Xem: Bài mới nhất
  Download hài tết 2012 Xuân Nhâm Thìn tổng hợp mediafire gacon12 5 2,444 21-11-2016, 14:41
Bài mới nhất: huyenmeomeo
  Download Hài Trấn Thành 2012: Trấn Thành phưu lưu ký Full pro12 1 2,025 01-06-2012, 08:31
Bài mới nhất: kuti_hamchoi
  [MediaFire] Tooth Fairy 2 (HD) tuhu1234 0 1,487 31-05-2012, 23:31
Bài mới nhất: tuhu1234
  Summer Love Love 2011 ( Full HD VietSub ) xem online tuhu1234 0 1,519 31-05-2012, 23:30
Bài mới nhất: tuhu1234
  Johnny English Reborn 2011 BRrip - Điệp viên không không thấy tái xuất tuhu1234 1 1,682 31-05-2012, 23:29
Bài mới nhất: pro12
  The Mafia, The Salesman (2007) : Đại ca tôi đi học 3 (DVDrip) tuhu1234 0 1,089 31-05-2012, 23:28
Bài mới nhất: tuhu1234
  [MF][18 ] Nana to Kaoru (Movie 2011) Live Action (350 MB) pro12 0 1,367 31-05-2012, 23:28
Bài mới nhất: pro12
  Vượt Sóng - Journey From The Fall (2006) - DVDRip (mediafire) tuhu1234 0 1,037 31-05-2012, 23:28
Bài mới nhất: tuhu1234
  Download Johnny English Reborn 2011 Mediafire - Điệp viên không không thấy gacon12 4 1,845 31-05-2012, 23:28
Bài mới nhất: pro12
  Download The Detective 2 DVDRip Vietsub 2011 - Trinh Thám B+ tuhu1234 0 1,104 31-05-2012, 23:28
Bài mới nhất: tuhu1234